#TITLE:Ma People;
#SUBTITLE:;
#ARTIST:Lexy;
#TITLETRANSLIT:;
#SUBTITLETRANSLIT:;
#ARTISTTRANSLIT:;
#CREDIT:;
#BANNER:Ma People_logo.jpg;
#BACKGROUND:Ma People_bg.jpg;
#LYRICSPATH:;
#CDTITLE:Lan.png;
#MUSIC:Ma People.mp3;
#OFFSET:-0.060;
#SAMPLESTART:100.000;
#SAMPLELENGTH:12.000;
#SELECTABLE:YES;
#BPMS:0.000=110.020;
#STOPS:;
#BGCHANGES:;
// cache tags:
#FIRSTBEAT:4.000;
#LASTBEAT:210.750;
#SONGFILENAME:Songs/lan sky/Ma People/Ma People.sm;
#HASMUSIC:1;
#HASBANNER:1;
#MUSICLENGTH:116.679;
// end cache tags

//---------------dance-single - sky----------------
#NOTES:
     dance-single:
     sky:
     Hard:
     8:
     0.627,0.768,0.711,0.000,0.450,429.000,83.000,0.000,0.000,0.000:

0000
0000
0000
0000
,
0001
0010
0100
0010
0100
1000
0100
0010
0001
0010
0100
0010
0001
0010
0100
1000
,
0100
0010
0001
0010
0100
0010
0100
1000
0100
0010
0001
0010
0100
0010
0100
1000
,
0100
0010
0001
0010
0100
0010
0100
1000
0100
0010
0001
0010
0100
0010
0001
0000
,
0010
0100
0010
0100
1000
0100
0010
0001
0010
0100
0010
0001
0010
0100
1000
0100
,
0010
0100
1000
0100
0010
0001
0010
0100
0010
0001
0010
0100
0010
0100
1000
0100
,
0010
0001
0010
0100
1000
0100
0010
0100
0010
0001
0010
0100
0010
0100
1000
0100
,
0010
0001
0010
0100
0010
0100
1000
0100
0010
0001
0010
0100
0010
0001
0010
0100
,
1001
0000
0000
0110
,
1001
0110
1001
0110
,
1100
0000
0000
0000
0011
0000
0000
0000
1100
0000
0001
0010
0100
1000
0100
0010
,
1001
0000
0000
0000
0110
0000
0000
0000
0011
0000
0000
0000
1100
0000
0010
0001
,
0010
0000
0100
1000
0100
0000
0010
0001
0010
0000
0100
0010
0100
0000
0001
0001
,
0110
1000
0110
0001
0110
1000
0110
0001
,
1010
0000
0100
0000
0101
0000
0010
0000
1001
0000
0010
0001
0010
0100
1000
0100
,
0011
0000
0100
0000
1010
0000
0100
0000
0011
0000
0100
0100
1000
0000
0100
0010
,
0100
0000
0001
0010
0001
0000
1000
0100
1000
0000
0001
0100
0010
0001
0010
0100
,
0010
0010
0100
0010
,
0100
1000
0010
0100
,
0010
0100
0001
0010
,
0001
0100
0010
1000
,
0100
0010
0100
0001
,
0010
0100
0010
1000
,
0100
0010
0100
0001
,
0010
0100
0010
0100
,
0010
1000
0100
0010
,
0001
0010
0100
0010
,
0001
0100
0010
0100
,
1000
0100
0010
0100
,
0001
0100
0010
0100
,
1000
0100
0010
0100
,
0001
0100
0010
0100
,
0010
0100
1010
1010
,
0101
0101
1010
1100
,
0011
1010
0011
0101
,
1100
0000
0000
0000
0011
0000
0000
0000
1100
0000
0000
0000
0011
0000
0010
0100
,
0010
0000
0001
0010
0001
0000
1000
0100
1000
0000
0001
0010
0100
0010
0001
0010
,
1100
0100
1010
0001
0101
0010
1001
0100
,
0011
0000
0100
0000
1010
0000
0100
0000
0011
0000
0001
0001
0110
0000
1000
0000
,
0101
0000
0010
0000
1100
0000
0100
0000
0101
0000
0010
0000
1010
0000
0001
0010
,
0001
0000
0100
0010
0100
0000
0100
1000
0100
0000
0001
0010
0100
0010
0001
0010
,
1100
0010
0101
0010
1100
0100
0110
0010
,
0101
0000
0010
0000
1100
0000
0010
0000
0101
0000
0010
0100
1000
0100
0010
0001
,
0010
0000
0100
0000
0011
0000
0100
0000
1001
0000
0100
0000
0010
0000
0001
0010
,
0001
0000
1000
0100
1000
0000
0010
0100
0010
0001
0001
0010
0001
0010
0100
1000
,
0010
0100
0101
0010
1100
0010
0011
0100
,
0011
0000
1000
0000
0110
0000
0001
0000
0110
0000
1000
1000
0110
0000
0001
0000
,
0110
0000
1000
0000
0101
0000
0010
0000
1100
0000
0010
0000
0101
0000
0010
0100
,
0010
0000
0001
0010
0001
0000
0100
0010
0100
0000
1000
0100
1000
0100
0010
0001
,
0110
0001
1010
0100
0101
0010
0101
0010
,
1100
0010
0101
0010
1010
0100
0011
0010
,
0101
0010
1100
0010
0101
0010
1100
0100
,
0011
0000
0010
0000
1100
0000
0010
0001
0010
0000
1000
0100
0000
0000
0000
0000
;
